<?xml version="1.0" standalone="no"?>
<!DOCTYPE svg PUBLIC "-//W3C//DTD SVG 1.1//EN" "http://www.w3.org/Graphics/SVG/1.1/DTD/svg11.dtd" >
<svg xmlns="http://www.w3.org/2000/svg">
<metadata>
This is a custom SVG webfont generated by Font Squirrel.
Copyright   : Copyright c Mark Simonson 2005 All rights reserved
Designer    : Mark Simonson
Foundry URL : httpwwwmarksimonsoncom
</metadata>
<defs>
<font id="ProximaNovaBold" horiz-adv-x="524" >
<font-face units-per-em="2048" ascent="1618" descent="-430" />
<missing-glyph horiz-adv-x="500" />
<glyph unicode=" " />
<glyph unicode="!" d="M98 143q0 68 48.5 117t116 49t116.5 -49t49 -117q0 -66 -49 -114.5t-116.5 -48.5t-116 48.5t-48.5 114.5zM104 1366h314l-41 -922h-230z" />
<glyph unicode="&#x22;" horiz-adv-x="831" d="M90 1245q0 57 41 99t100 42q57 0 99.5 -41.5t42.5 -99.5l-84 -477h-115q-84 438 -84 477zM461 1245q0 57 42 99t99 42t98 -40.5t41 -100.5l-84 -477h-112q-84 438 -84 477z" />
<glyph unicode="#" horiz-adv-x="1265" d="M35 346l53 166h201l110 340h-200l51 164h207l114 350h193l-115 -350h193l114 350h195l-119 -350h199l-49 -164h-205l-113 -340h207l-51 -166h-211l-115 -346h-194l118 346h-194l-117 -346h-192l116 346h-196zM481 512h191l112 340h-192z" />
<glyph unicode="$" horiz-adv-x="1257" d="M61 193l158 221q135 -143 326 -176v323q-76 18 -128 35.5t-116.5 51.5t-103.5 74t-66 104.5t-27 144.5q0 160 119 275.5t322 135.5v191h194v-195q246 -27 416 -182l-162 -213q-106 96 -254 133v-289q76 -18 129.5 -36.5t118 -52t104 -74.5t67.5 -105.5t28 -144.5 q0 -176 -115 -293t-332 -139v-187h-194v185q-300 27 -484 213zM401 995q0 -76 144 -116v249q-68 -8 -106 -44t-38 -89zM739 238q72 14 112 54t40 89q0 82 -152 131v-274z" />
<glyph unicode="%" horiz-adv-x="1550" d="M53 1042q0 147 96.5 245.5t249.5 98.5q156 0 252.5 -98t96.5 -246q0 -145 -96.5 -240t-252.5 -95q-154 0 -250 95t-96 240zM238 1042q0 -78 46 -127t115 -49q72 0 117 48.5t45 127.5q0 84 -45 133.5t-116.5 49.5t-116.5 -49.5t-45 -133.5zM266 0l873 1366h155l-874 -1366 h-154zM805 313q0 147 96 245.5t250 98.5t251 -98t97 -246q0 -145 -97 -241.5t-251 -96.5t-250 96.5t-96 241.5zM989 313q0 -82 45 -130t117 -48t118 48t46 130q0 84 -46 133.5t-118 49.5t-117 -49.5t-45 -133.5z" />
<glyph unicode="&#x26;" horiz-adv-x="1323" d="M49 371q0 141 79 233t214 160q-90 170 -90 295q0 139 110.5 233t280.5 94q152 0 255 -78.5t103 -209.5q0 -74 -26.5 -133.5t-80.5 -104.5t-102.5 -72.5t-125.5 -64.5q45 -59 118 -148q23 -29 64 -79t51 -60q82 127 125 264l209 -96q-86 -188 -191 -330q137 -147 265 -274 h-332q-43 41 -103 102q-168 -127 -372 -127q-197 0 -324 103t-127 293zM326 395q0 -96 61.5 -155.5t149.5 -59.5q100 0 196 70q-102 113 -151 174q-72 88 -138 180q-118 -84 -118 -209zM512 1053q0 -72 59 -185q100 47 152.5 96.5t52.5 118.5q0 53 -34.5 84t-86.5 31 q-61 0 -102 -42t-41 -103z" />
<glyph unicode="'" horiz-adv-x="460" d="M90 1245q0 57 41 99t100 42q57 0 99.5 -41.5t42.5 -99.5l-84 -477h-115q-84 438 -84 477z" />
<glyph unicode="(" horiz-adv-x="608" d="M84 497.5q0 247.5 87 492.5t237 413l163 -123q-106 -195 -156 -377t-50 -405.5t50 -405.5t156 -373l-163 -127q-150 168 -237 413t-87 492.5z" />
<glyph unicode=")" horiz-adv-x="608" d="M35 -281q109 188 159 370.5t50 408t-50.5 407.5t-158.5 375l164 123q152 -170 239.5 -414t87.5 -491.5t-89 -492.5t-238 -413z" />
<glyph unicode="*" horiz-adv-x="718" d="M51 965l199 102l-199 102l64 113l190 -121l-10 225h129l-10 -225l188 121l66 -113l-199 -102l199 -102l-66 -111l-188 121l10 -225h-129l10 225l-190 -121z" />
<glyph unicode="+" horiz-adv-x="1032" d="M59 610v162h369v399h178v-399h367v-162h-367v-415h-178v415h-369z" />
<glyph unicode="," d="M96 145q0 68 47 116t113 48q76 0 130 -56t54 -153q0 -113 -57 -212t-154 -169l-112 93q51 27 98 83t59 109q-18 -6 -38 -6q-59 0 -99.5 40.5t-40.5 106.5z" />
<glyph unicode="-" horiz-adv-x="614" d="M61 385v221h492v-221h-492z" />
<glyph unicode="." d="M96 143.5q0 67.5 49.5 116.5t117 49t116.5 -49t49 -116.5t-49 -117t-116.5 -49.5t-117 49.5t-49.5 117z" />
<glyph unicode="/" horiz-adv-x="673" d="M0 -41l485 1448h189l-486 -1448h-188z" />
<glyph unicode="0" horiz-adv-x="1269" d="M70 682q0 184 57 340t189.5 260t318.5 104t317 -104t189.5 -260t58.5 -340t-58.5 -340t-189.5 -261.5t-317 -105.5t-318.5 105.5t-189.5 261.5t-57 340zM365 682q0 -203 65.5 -326t204.5 -123t203.5 123t64.5 326t-64.5 324.5t-203.5 121.5t-204.5 -121.5t-65.5 -324.5z " />
<glyph unicode="1" horiz-adv-x="841" d="M23 934l430 432h254v-1366h-291v991l-228 -231z" />
<glyph unicode="2" horiz-adv-x="1228" d="M66 1163q96 111 236 167t290 56q225 0 373.5 -118.5t148.5 -317.5q0 -168 -132 -328.5t-415 -365.5h557v-256h-1028v227q438 326 580.5 464t142.5 259q0 84 -65.5 131t-155.5 47q-215 0 -367 -157z" />
<glyph unicode="3" horiz-adv-x="1202" d="M41 195l152 194q70 -72 172 -114t204 -42q123 0 190.5 48.5t67.5 126.5q0 82 -65.5 119.5t-208.5 37.5q-129 0 -170 -4v262q25 -2 170 -2q252 0 252 146q0 78 -70.5 119.5t-183.5 41.5q-199 0 -346 -141l-146 182q193 217 523 217q240 0 378 -100t138 -270 q0 -123 -88 -206t-211 -105q121 -12 220 -99.5t99 -228.5q0 -178 -147.5 -290t-390.5 -112q-180 0 -319.5 61t-219.5 159z" />
<glyph unicode="4" horiz-adv-x="1222" d="M51 283v229l543 854h401v-827h176v-256h-176v-283h-290v283h-654zM336 539h369v569z" />
<glyph unicode="5" horiz-adv-x="1245" d="M100 180l162 203q143 -150 363 -150q117 0 185.5 58.5t68.5 144.5q0 92 -65.5 147.5t-180.5 55.5q-170 0 -287 -111l-203 54v784h938v-256h-647v-334q115 115 301 115q182 0 310.5 -121t128.5 -321q0 -217 -150 -345.5t-397 -128.5q-339 0 -527 205z" />
<glyph unicode="6" horiz-adv-x="1245" d="M70 680q0 317 170 511.5t467 194.5q238 0 403 -141l-131 -223q-113 106 -272 106q-150 0 -246 -111.5t-96 -275.5q0 -18 2 -28q51 74 147 125t203 51q195 0 330 -118t135 -327q0 -203 -145.5 -336t-377.5 -133q-295 0 -442 197t-147 508zM367 510q10 -115 77.5 -196 t198.5 -81q111 0 177.5 61.5t66.5 139.5q0 100 -74 152.5t-180 52.5q-164 0 -266 -129z" />
<glyph unicode="7" horiz-adv-x="1116" d="M49 1110v256h1026v-203l-508 -1163h-319l489 1110h-688z" />
<glyph unicode="8" horiz-adv-x="1241" d="M72 354q0 119 82 212t211 139q-270 94 -271 321q0 178 157 269t370 91q135 0 249.5 -34.5t195.5 -119.5t81 -206q0 -225 -273 -321q129 -45 212 -138.5t83 -212.5q0 -180 -159.5 -279.5t-388.5 -99.5q-231 0 -390 98.5t-159 280.5zM367 391q0 -74 72.5 -120t181.5 -46 q106 0 179.5 46t73.5 120q0 76 -82.5 123t-170.5 59q-88 -12 -171 -59t-83 -123zM389 981q0 -68 74 -109t158 -53q84 12 156.5 53t72.5 109q0 72 -63.5 114t-166 42t-167 -42t-64.5 -114z" />
<glyph unicode="9" horiz-adv-x="1245" d="M61 920q0 203 146.5 336t378.5 133q199 0 335 -98.5t194.5 -253t58.5 -355.5q0 -315 -169 -510t-466 -195q-244 0 -402 142l129 223q113 -106 272.5 -106t251 113.5t91.5 271.5v30q-53 -74 -149.5 -125t-203.5 -51q-195 0 -331 118t-136 327zM358 930q0 -100 74 -152.5 t178 -52.5q164 0 269 127q-10 115 -78 196.5t-201 81.5q-111 0 -176.5 -61t-65.5 -139z" />
<glyph unicode=":" horiz-adv-x="514" d="M96 143.5q0 67.5 49.5 116.5t117 49t116.5 -49t49 -116.5t-49 -117t-116.5 -49.5t-117 49.5t-49.5 117zM96 837.5q0 67.5 49.5 117t117 49.5t116.5 -49.5t49 -117t-49 -116.5t-116.5 -49t-117 49t-49.5 116.5z" />
<glyph unicode=";" d="M96 152q0 68 47 114.5t113 46.5q76 0 130 -56t54 -153q0 -113 -57 -212t-154 -168l-112 92q51 29 98 86t59 108q-25 -8 -38 -8q-59 0 -99.5 42t-40.5 108zM96 838q0 68 49.5 117t117 49t116.5 -49.5t49 -116.5q0 -66 -49 -116t-116.5 -50t-117 50t-49.5 116z" />
<glyph unicode="&#x3c;" horiz-adv-x="1032" d="M59 592v186l914 410v-193l-727 -311l727 -307v-193z" />
<glyph unicode="=" horiz-adv-x="1032" d="M59 412v159h914v-159h-914zM59 795v163h914v-163h-914z" />
<glyph unicode="&#x3e;" horiz-adv-x="1032" d="M59 184v193l727 307l-727 311v193l914 -410v-186z" />
<glyph unicode="?" horiz-adv-x="933" d="M18 1188q170 199 449 198q197 0 311.5 -89t114.5 -234q0 -82 -35 -147.5t-86 -106.5t-101 -76t-85 -76t-35 -88q0 -53 37 -86l-223 -65q-68 74 -68 180q0 82 47 147.5t102.5 98.5t102.5 78t47 90q0 51 -40 83.5t-120 32.5q-145 0 -252 -127zM297 143.5q0 67.5 49 116.5 t116.5 49t117 -49t49.5 -116.5t-49.5 -117t-117 -49.5t-116.5 49.5t-49 117z" />
<glyph unicode="@" horiz-adv-x="1603" d="M72 500q0 213 113.5 400t302 297t397.5 110q287 0 466 -182.5t179 -444.5q0 -238 -127 -372t-279 -134q-86 0 -137 44t-61 108l-2 12q-53 -76 -133 -120t-162 -44q-145 0 -231.5 96.5t-86.5 247.5q0 203 141.5 352.5t321.5 149.5q88 0 154.5 -38t101.5 -99l23 108h231 l-104 -499q-6 -37 -6 -50q0 -92 75 -92q72 0 132.5 85t60.5 245q0 244 -154.5 395.5t-410.5 151.5q-291 0 -508 -218t-217 -505q0 -242 164.5 -406t412.5 -164q197 0 375 113l43 -61q-201 -129 -426 -129q-279 0 -464 185.5t-185 457.5zM549 539q0 -80 46 -130.5t124 -50.5 q129 0 227 134l51 239q-51 104 -166 105q-119 0 -200.5 -90t-81.5 -207z" />
<glyph unicode="A" horiz-adv-x="1400" d="M-10 0l528 1366h365l526 -1366h-332l-84 231h-585l-86 -231h-332zM487 487h426l-213 588z" />
<glyph unicode="B" horiz-adv-x="1357" d="M135 0v1366h719q186 0 289.5 -101.5t103.5 -246.5q0 -125 -67.5 -209t-167.5 -104q111 -16 186.5 -112.5t75.5 -223.5q0 -160 -104.5 -264.5t-292.5 -104.5h-742zM426 252h375q82 0 129 42t47 116q0 68 -47 113.5t-129 45.5h-375v-317zM426 819h365q74 0 116.5 41 t42.5 106.5t-44 107.5t-115 42h-365v-297z" />
<glyph unicode="C" horiz-adv-x="1406" d="M70 682q0 311 207.5 509t519.5 198q383 0 571 -334l-250 -123q-45 86 -132 142t-189 56q-186 0 -307 -126.5t-121 -321.5t120.5 -322t307.5 -127q102 0 189 55.5t132 143.5l250 -121q-195 -336 -571 -336q-311 0 -519 198t-208 509z" />
<glyph unicode="D" horiz-adv-x="1470" d="M135 0v1366h539q322 0 523.5 -188.5t201.5 -495.5t-201 -494.5t-524 -187.5h-539zM426 256h248q197 0 312.5 123t115.5 303q0 188 -112.5 308t-315.5 120h-248v-854z" />
<glyph unicode="E" horiz-adv-x="1193" d="M135 0v1366h967v-256h-676v-289h661v-256h-661v-309h676v-256h-967z" />
<glyph unicode="F" horiz-adv-x="1169" d="M135 0v1366h967v-256h-676v-289h661v-256h-661v-565h-291z" />
<glyph unicode="G" horiz-adv-x="1474" d="M70 682q0 317 209.5 512t517.5 195q373 0 565 -306l-242 -131q-49 78 -134 128t-189 50q-186 0 -307 -126.5t-121 -321.5t120.5 -322t307.5 -127q86 0 165.5 31t124.5 74v164h-360v254h651v-525q-231 -258 -581 -258q-307 0 -517 197t-210 512z" />
<glyph unicode="H" horiz-adv-x="1497" d="M135 0v1366h291v-537h645v537h293v-1366h-293v573h-645v-573h-291z" />
<glyph unicode="I" horiz-adv-x="561" d="M135 0v1366h291v-1366h-291z" />
<glyph unicode="J" horiz-adv-x="995" d="M12 109l127 223q102 -98 217 -99q96 0 154.5 59.5t58.5 160.5v913h291v-917q0 -233 -131 -353.5t-350 -120.5q-232 1 -367 134z" />
<glyph unicode="K" horiz-adv-x="1302" d="M135 0v1366h291v-610l483 610h359l-543 -641l580 -725h-359l-414 547l-106 -127v-420h-291z" />
<glyph unicode="L" horiz-adv-x="1071" d="M135 0v1366h291v-1110h578v-256h-869z" />
<glyph unicode="M" horiz-adv-x="1751" d="M135 0v1366h408l331 -825l332 825h410v-1366h-293v956l-385 -956h-127l-385 956v-956h-291z" />
<glyph unicode="N" horiz-adv-x="1492" d="M135 0v1366h299l633 -858v858h291v-1366h-281l-651 891v-891h-291z" />
<glyph unicode="O" horiz-adv-x="1566" d="M70 682q0 307 201.5 507t510.5 200q311 0 513 -199t202 -508t-201.5 -508t-513.5 -199q-309 0 -510.5 200t-201.5 507zM369 682q0 -195 113.5 -322t300 -127t301 127t114.5 322t-114.5 321.5t-301 126.5t-300 -126.5t-113.5 -321.5z" />
<glyph unicode="P" horiz-adv-x="1277" d="M135 0v1366h639q215 0 337 -126t122 -314q0 -186 -123 -313.5t-336 -127.5h-348v-485h-291zM426 741h309q88 0 144.5 50.5t56.5 134.5t-56.5 134t-144.5 50h-309v-369z" />
<glyph unicode="Q" horiz-adv-x="1566" d="M70 682q0 307 201.5 507t510.5 200q311 0 513 -199t202 -508q0 -289 -178 -483l100 -117l-202 -166l-111 127q-152 -68 -324 -68q-309 0 -510.5 200t-201.5 507zM369 682q0 -195 113.5 -322t299.5 -127q72 0 144 23l-150 176l201 166l151 -178q70 115 70 262 q0 195 -114.5 321.5t-301 126.5t-300 -126.5t-113.5 -321.5z" />
<glyph unicode="R" horiz-adv-x="1316" d="M135 0v1366h639q211 0 335 -123t124 -317q0 -168 -87 -272.5t-212 -133.5l307 -520h-334l-268 485h-213v-485h-291zM426 741h305q90 0 147.5 50.5t57.5 134.5t-57.5 134t-147.5 50h-305v-369z" />
<glyph unicode="S" horiz-adv-x="1228" d="M43 193l158 221q176 -184 434 -185q113 0 175 44t62 108q0 55 -58 92t-145 53.5t-189.5 47t-189.5 69.5t-145.5 123t-58.5 205q0 176 141.5 295.5t376.5 119.5q326 0 533 -190l-162 -213q-162 150 -397 150q-92 0 -143.5 -37t-51.5 -101q0 -49 58.5 -82.5t145.5 -50 t188.5 -48.5t188.5 -72t145 -125t58 -203q0 -197 -140 -318t-406 -121q-365 1 -578 218z" />
<glyph unicode="T" horiz-adv-x="1191" d="M51 1110v256h1090v-256h-398v-1110h-292v1110h-400z" />
<glyph unicode="U" horiz-adv-x="1501" d="M135 545v821h295v-811q0 -147 84 -234.5t237.5 -87.5t236.5 87.5t83 234.5v811h297v-819q0 -264 -156.5 -418t-459.5 -154t-460 155t-157 415z" />
<glyph unicode="V" horiz-adv-x="1400" d="M-10 1366h332l378 -1051l377 1051h332l-526 -1366h-365z" />
<glyph unicode="W" horiz-adv-x="1880" d="M2 1366h326l239 -987l260 987h228l258 -987l237 987h328l-389 -1366h-309l-240 938l-238 -938h-309z" />
<glyph unicode="X" horiz-adv-x="1368" d="M-6 0l495 700l-464 666h346l313 -467l309 467h350l-464 -664l495 -702h-348l-342 500l-344 -500h-346z" />
<glyph unicode="Y" horiz-adv-x="1320" d="M-10 1366h332l340 -549l335 549h332l-522 -807v-559h-291v559z" />
<glyph unicode="Z" horiz-adv-x="1212" d="M86 0v236l645 874h-645v256h1026v-233l-645 -877h659v-256h-1040z" />
<glyph unicode="[" horiz-adv-x="573" d="M96 -389v1778h443v-175h-256v-1429h256v-174h-443z" />
<glyph unicode="\" horiz-adv-x="673" d="M0 1407h188l486 -1448h-189z" />
<glyph unicode="]" horiz-adv-x="573" d="M35 -215h256v1429h-256v175h442v-1778h-442v174z" />
<glyph unicode="^" horiz-adv-x="903" d="M39 682l319 684h191l315 -684h-192l-221 506l-220 -506h-192z" />
<glyph unicode="_" horiz-adv-x="1155" d="M-6 -82h1167v-174h-1167v174z" />
<glyph unicode="`" horiz-adv-x="514" d="M0 1434h238l276 -295h-182z" />
<glyph unicode="a" horiz-adv-x="1112" d="M66 303q0 160 103 240t241 80q211 0 313 -121v133q0 76 -59.5 121t-157.5 45q-162 0 -289 -117l-98 174q176 156 432 156q190 0 311 -88t121 -287v-639h-260v102q-106 -127 -313 -127q-133 0 -238.5 87t-105.5 241zM328 297q0 -68 53 -106.5t133 -38.5q145 0 209 86v122 q-63 86 -209 86q-80 0 -133 -39.5t-53 -109.5z" />
<glyph unicode="b" horiz-adv-x="1200" d="M129 0v1366h260v-504q117 152 305 152q193 0 316 -141.5t123 -378.5q0 -242 -123 -380.5t-316 -138.5q-184 0 -305 152v-127h-260zM389 317q33 -47 96.5 -78.5t126.5 -31.5q113 0 182.5 79t69.5 208t-69.5 208.5t-182.5 79.5q-63 0 -126.5 -32.5t-96.5 -81.5v-351z" />
<glyph unicode="c" horiz-adv-x="1021" d="M66 496q0 227 147 372.5t377 145.5q262 0 391 -178l-170 -160q-72 106 -209 106q-119 0 -193.5 -78.5t-74.5 -207.5t74.5 -209t193.5 -80q133 0 209 106l170 -157q-129 -180 -391 -181q-229 0 -376.5 146t-147.5 375z" />
<glyph unicode="d" horiz-adv-x="1200" d="M66 494q0 238 122.5 379t315.5 141q188 0 305 -152v504h262v-1366h-262v127q-121 -152 -305 -152q-193 0 -315.5 138.5t-122.5 380.5zM334 494q0 -127 69.5 -207t180.5 -80q66 0 129 31.5t96 80.5v351q-33 49 -96.5 80.5t-128.5 31.5q-111 0 -180.5 -79.5t-69.5 -208.5z " />
<glyph unicode="e" horiz-adv-x="1132" d="M66 496q0 219 144 368.5t368 149.5q221 0 358 -150.5t137 -394.5v-57h-735q12 -98 88 -164t197 -66q66 0 142.5 27t121.5 72l114 -168q-150 -137 -407 -138q-229 0 -378.5 144t-149.5 377zM334 588h487q-6 84 -66.5 151.5t-176.5 67.5q-111 0 -172.5 -66.5t-71.5 -152.5z " />
<glyph unicode="f" horiz-adv-x="669" d="M23 762v227h163v53q0 158 92.5 251t241.5 93q172 0 258 -92l-98 -153q-41 41 -109 41q-55 0 -88.5 -36t-33.5 -104v-53h200v-227h-200v-762h-263v762h-163z" />
<glyph unicode="g" horiz-adv-x="1198" d="M66 510q0 238 121.5 371t314.5 133q184 0 305 -152v127h262v-921q0 -135 -48 -231.5t-130 -145.5t-169 -70.5t-187 -21.5q-256 0 -426 147l116 188q111 -123 310 -122q111 0 191.5 58t80.5 191v101q-123 -156 -305 -156q-193 0 -314.5 132t-121.5 372zM334 510 q0 -125 68.5 -198.5t181.5 -73.5q63 0 126.5 32.5t96.5 79.5v320q-33 49 -95.5 80.5t-127.5 31.5q-113 0 -181.5 -73.5t-68.5 -198.5z" />
<glyph unicode="h" horiz-adv-x="1187" d="M129 0v1366h260v-506q53 63 144.5 108.5t203.5 45.5q160 0 241 -82t81 -230v-702h-260v602q0 98 -47 139t-138 41q-137 0 -225 -116v-666h-260z" />
<glyph unicode="i" horiz-adv-x="518" d="M102 1251.5q0 63.5 46.5 108.5t109.5 45q66 0 111 -45t45 -108.5t-45 -109.5t-111 -46q-63 0 -109.5 46t-46.5 109.5zM129 0v989h260v-989h-260z" />
<glyph unicode="j" horiz-adv-x="518" d="M-211 -332l72 195q61 -51 133 -51q61 0 98 41t37 120v1016h260v-1016q0 -174 -89 -274t-263 -100q-90 0 -140.5 15t-107.5 54zM102 1251.5q0 63.5 46.5 108.5t109.5 45q66 0 111 -45t45 -108.5t-45 -109.5t-111 -46q-63 0 -109.5 46t-46.5 109.5z" />
<glyph unicode="k" horiz-adv-x="1095" d="M129 0v1366h260v-817l375 440h319l-391 -448l404 -541h-326l-262 381l-119 -127v-254h-260z" />
<glyph unicode="l" horiz-adv-x="518" d="M129 0v1366h260v-1366h-260z" />
<glyph unicode="m" horiz-adv-x="1744" d="M129 0v989h260v-129q37 53 129 103.5t195 50.5q215 0 274 -180q47 74 140.5 127t199.5 53q139 0 215 -75t76 -224v-715h-262v625q0 158 -148 157q-63 0 -117.5 -34.5t-86.5 -79.5v-668h-263v625q0 158 -147 157q-61 0 -116.5 -34.5t-88.5 -81.5v-666h-260z" />
<glyph unicode="n" horiz-adv-x="1185" d="M129 0v989h260v-129q129 154 346 154q160 0 241 -84t81 -232v-698h-260v598q0 184 -183 184q-141 0 -225 -116v-666h-260z" />
<glyph unicode="o" horiz-adv-x="1175" d="M66 495.5q0 219.5 142 369t379.5 149.5t381 -149.5t143.5 -369t-143.5 -370t-381 -150.5t-379.5 150.5t-142 370zM336 496q0 -123 67.5 -206t184.5 -83t185.5 83t68.5 206q0 121 -68.5 203.5t-185.5 82.5t-184.5 -82.5t-67.5 -203.5z" />
<glyph unicode="p" horiz-adv-x="1193" d="M129 -377v1366h260v-125q117 150 305 150q195 0 317 -138.5t122 -380t-122 -381t-317 -139.5q-186 0 -305 152v-504h-260zM389 319q33 -47 97.5 -79.5t125.5 -32.5q113 0 181.5 80t68.5 209q0 127 -68.5 206.5t-181.5 79.5q-63 0 -126.5 -32.5t-96.5 -79.5v-351z" />
<glyph unicode="q" horiz-adv-x="1193" d="M61 495.5q0 241.5 122 380t317 138.5q188 0 305 -150v125h262v-1366h-262v504q-119 -152 -305 -152q-195 0 -317 139.5t-122 381zM332 496q0 -129 69.5 -209t180.5 -80q61 0 125.5 32.5t97.5 79.5v351q-33 47 -96.5 79.5t-126.5 32.5q-111 0 -180.5 -79.5t-69.5 -206.5z " />
<glyph unicode="r" horiz-adv-x="737" d="M129 0v989h260v-135q55 70 141 115t175 45v-254q-29 6 -72 6q-66 0 -139.5 -33t-104.5 -80v-653h-260z" />
<glyph unicode="s" horiz-adv-x="976" d="M43 129l113 182q57 -53 155.5 -94t186.5 -41q82 0 124 28.5t42 78.5q0 37 -44.5 60.5t-109 33.5t-141 30.5t-141 49t-108.5 91t-44 154.5q0 131 108.5 221.5t296.5 90.5q229 0 400 -135l-105 -179q-47 49 -126 82t-167 33q-70 0 -112.5 -27.5t-42.5 -70.5q0 -33 43 -54.5 t108.5 -31.5t141 -31.5t141 -51.5t108.5 -95.5t43 -159.5q0 -139 -113.5 -228.5t-314.5 -89.5q-129 0 -246.5 41t-195.5 113z" />
<glyph unicode="t" horiz-adv-x="692" d="M16 762v227h164v271h262v-271h201v-227h-201v-447q0 -47 25 -77.5t65 -30.5q61 0 91 29l55 -197q-72 -63 -217 -64q-137 0 -209 70t-72 201v516h-164z" />
<glyph unicode="u" horiz-adv-x="1185" d="M129 287v702h260v-600q0 -182 182 -182q137 0 226 112v670h260v-989h-260v125q-133 -150 -348 -150q-160 0 -240 82.5t-80 229.5z" />
<glyph unicode="v" horiz-adv-x="1050" d="M-12 989h278l258 -688l258 688h281l-397 -989h-281z" />
<glyph unicode="w" horiz-adv-x="1574" d="M0 989h270l185 -665l217 665h231l217 -665l185 665h270l-301 -989h-277l-209 674l-208 -674h-279z" />
<glyph unicode="x" horiz-adv-x="1032" d="M0 0l350 508l-330 481h291l205 -305l203 305h291l-332 -481l354 -508h-291l-225 334l-227 -334h-289z" />
<glyph unicode="y" horiz-adv-x="1050" d="M-12 989h278l258 -688l258 688h281l-465 -1151q-51 -131 -143.5 -183t-231.5 -56q-72 0 -129 14l39 233q37 -16 82 -16q104 0 137 72l37 84z" />
<glyph unicode="z" horiz-adv-x="980" d="M86 0v195l446 567h-446v227h799v-188l-453 -574h461v-227h-807z" />
<glyph unicode="{" horiz-adv-x="589" d="M6 426v147q51 0 79 39t28 99v350q0 145 94 236.5t223 91.5h125v-175h-125q-53 0 -90 -42t-37 -109v-379q0 -143 -94 -184q94 -41 94 -185v-376q0 -68 37 -111t90 -43h125v-174h-125q-129 0 -223 90t-94 236v352q0 59 -28 98t-79 39z" />
<glyph unicode="|" horiz-adv-x="442" d="M135 -41v1448h174v-1448h-174z" />
<glyph unicode="}" horiz-adv-x="589" d="M35 -215h125q53 0 91 43t38 111v376q0 143 94 185q-94 41 -94 184v379q0 68 -38 109.5t-91 41.5h-125v175h125q129 0 223 -91.5t94 -236.5v-350q0 -59 27.5 -98.5t79.5 -39.5v-147q-51 0 -79 -39t-28 -98v-352q0 -145 -94 -235.5t-223 -90.5h-125v174z" />
<glyph unicode="~" horiz-adv-x="1044" d="M53 864q8 104 24.5 183t49.5 156t91 119t140 42q74 0 124 -37t73 -90t39 -107.5t37.5 -91.5t54.5 -37q100 0 129 365l176 -20q-8 -106 -24.5 -184.5t-48 -156t-91 -119.5t-141.5 -42q-90 0 -145.5 56t-72.5 124t-44 124t-66 56q-98 0 -127 -360z" />
<glyph unicode="&#xa0;" />
<glyph unicode="&#xa1;" d="M96 848q0 66 48.5 115t116 49t116.5 -49.5t49 -114.5q0 -68 -49 -118t-116.5 -50t-116 50t-48.5 118zM104 -377l41 920h232l43 -920h-316z" />
<glyph unicode="&#xa2;" horiz-adv-x="1021" d="M66 496q0 201 117.5 341t310.5 169v151h188v-149q195 -31 299 -172l-170 -160q-51 74 -129 94v-553q76 23 129 96l170 -157q-104 -147 -299 -174v-187h-188v189q-193 29 -310.5 169t-117.5 343zM334 495.5q0 -96.5 43 -167t117 -101.5v535q-74 -31 -117 -100.5t-43 -166z " />
<glyph unicode="&#xa3;" horiz-adv-x="1126" d="M47 551v166h139q-94 129 -94 246q0 186 151.5 304.5t346.5 118.5q346 0 475 -247l-231 -135q-27 66 -83.5 105.5t-125.5 39.5q-92 0 -153.5 -53.5t-61.5 -139.5q0 -29 4 -54t18 -55t20.5 -41t31 -48t26.5 -41h295v-166h-232q0 -6 1 -19.5t1 -19.5q0 -70 -36.5 -131.5 t-94.5 -95.5q43 14 101 14q61 0 139 -34t127 -34q121 0 176 76l115 -231q-98 -102 -301 -103q-96 0 -206 45t-165 45q-96 0 -237 -77l-99 198q223 109 223 256q0 51 -24 111h-246z" />
<glyph unicode="&#xa4;" horiz-adv-x="1275" d="M47 1120l156 152l155 -156q123 70 279 70q152 0 278 -70l156 156l156 -154l-150 -149q84 -129 84 -287q0 -162 -86 -289l152 -145l-156 -152l-153 150q-121 -70 -281 -70t-283 72l-149 -152l-156 152l150 149q-82 127 -82 285t82 285zM377 682q0 -115 69.5 -193.5 t190.5 -78.5q123 0 192.5 77.5t69.5 194.5q0 115 -69.5 192.5t-192.5 77.5q-121 0 -190.5 -77.5t-69.5 -192.5z" />
<glyph unicode="&#xa5;" horiz-adv-x="1320" d="M-10 1366h332l340 -549l335 549h332l-418 -645h365v-162h-469v-164h469v-159h-469v-236h-291v236h-467v159h467v164h-467v162h361z" />
<glyph unicode="&#xa6;" horiz-adv-x="442" d="M135 -41v647h174v-647h-174zM135 760v647h174v-647h-174z" />
<glyph unicode="&#xa7;" horiz-adv-x="991" d="M47 -4l109 164q59 -59 147 -102.5t182 -43.5q82 0 130.5 31t48.5 88q0 45 -44.5 74t-109 42t-141 35.5t-141 50t-108.5 89t-44 151.5q0 96 59.5 162t140.5 94q-201 76 -200 259q0 127 113.5 211.5t291.5 84.5q254 0 398 -139l-103 -153q-111 111 -284 110 q-76 0 -120 -29.5t-44 -80.5q0 -47 60.5 -73t146.5 -43t172 -43t146 -93.5t60 -173.5q0 -176 -170 -262q170 -74 170 -252q0 -150 -118.5 -235t-309.5 -85q-260 0 -438 162zM328 614q0 -66 55 -95.5t156 -51.5q119 51 118 151q0 109 -170 148q-88 -20 -123.5 -57.5 t-35.5 -94.5z" />
<glyph unicode="&#xa8;" horiz-adv-x="604" d="M-53 1251q0 57 41 97.5t98 40.5t97 -40t40 -97.5t-40 -98.5t-97 -41t-98 40t-41 99zM379 1251.5q0 57.5 41 97.5t98 40t98 -40t41 -97.5t-41 -98.5t-98 -41t-98 41t-41 98.5z" />
<glyph unicode="&#xa9;" horiz-adv-x="1593" d="M90 684q0 293 207 500t500 207t499.5 -207t206.5 -500t-206.5 -500t-499.5 -207t-500 208t-207 499zM164 684q0 -260 186.5 -446.5t446.5 -186.5t446.5 186.5t186.5 446.5q0 262 -186.5 447.5t-446.5 185.5t-446.5 -186.5t-186.5 -446.5zM381 686q0 184 124 307t302 123 q188 0 303 -135l-63 -63q-86 117 -240 116q-137 0 -234.5 -98t-97.5 -250q0 -150 97.5 -251t234.5 -101q154 0 242 119l63 -62q-119 -139 -305 -139q-178 0 -302 124t-124 310z" />
<glyph unicode="&#xaa;" horiz-adv-x="788" d="M63 864q0 98 68 152.5t158 54.5q139 0 209 -78v82q0 51 -39 81t-103 30q-109 0 -188 -84l-72 123q121 102 293 102q129 0 213 -59.5t84 -196.5v-403h-188v65q-74 -82 -209 -82q-90 0 -158 56.5t-68 156.5zM250 864q0 -45 33.5 -70.5t83.5 -25.5q88 0 131 59v74 q-43 55 -131 55q-49 0 -83 -24.5t-34 -67.5z" />
<glyph unicode="&#xab;" horiz-adv-x="1079" d="M61 498l328 362h240l-328 -362l328 -369h-240zM451 498l327 362h240l-328 -362l328 -369h-240z" />
<glyph unicode="&#xac;" horiz-adv-x="1054" d="M59 795v163h914v-546h-166v383h-748z" />
<glyph unicode="&#xad;" horiz-adv-x="614" d="M61 385v221h492v-221h-492z" />
<glyph unicode="&#xae;" horiz-adv-x="1011" d="M72 952.5q0 180.5 127 307t307 126.5q182 0 308 -125.5t126 -308.5q0 -180 -127 -307t-307 -127t-307 127t-127 307.5zM137 952q0 -152 107.5 -260t261.5 -108q152 0 260 108.5t108 259.5q0 154 -108.5 261.5t-259.5 107.5q-154 0 -261.5 -107.5t-107.5 -261.5zM340 702 v498h203q66 0 114 -42t48 -109q0 -72 -46.5 -110t-80.5 -38l133 -199h-86l-129 197h-86v-197h-70zM410 963h133q35 0 62.5 24.5t27.5 61.5q0 39 -27.5 64.5t-62.5 25.5h-133v-176z" />
<glyph unicode="&#xaf;" horiz-adv-x="743" d="M0 1151v147h743v-147h-743z" />
<glyph unicode="&#xb0;" horiz-adv-x="636" d="M41 1108q0 115 81 196.5t195.5 81.5t195.5 -81.5t81 -196.5t-81 -194.5t-195.5 -79.5t-195.5 79.5t-81 194.5zM184 1108q0 -55 38 -94t95 -39q55 0 95.5 39t40.5 94q0 57 -40 97t-96 40q-57 0 -95 -40t-38 -97z" />
<glyph unicode="&#xb1;" horiz-adv-x="1032" d="M59 0v160h914v-160h-914zM59 668v159h369v404h178v-404h367v-159h-367v-418h-178v418h-369z" />
<glyph unicode="&#xb2;" horiz-adv-x="813" d="M72 1559q121 135 329 135q145 0 237.5 -67.5t92.5 -188.5q0 -96 -83 -191.5t-269 -226.5h358v-158h-643v144q268 188 355.5 269t87.5 148q0 55 -39 84t-101 29q-68 0 -129 -30.5t-94 -71.5z" />
<glyph unicode="&#xb3;" horiz-adv-x="813" d="M66 977l96 129q94 -100 235 -100q72 0 111 26.5t39 69.5q0 100 -180 100q-80 0 -93 -2v156q18 -2 91 -2q168 0 167 92q0 90 -149 90q-125 0 -215 -90l-92 117q121 131 327 131q154 0 240 -60.5t86 -163.5q0 -72 -53 -123t-129 -63q72 -6 134 -58t62 -136 q0 -109 -93 -175.5t-247 -66.5q-226 0 -337 129z" />
<glyph unicode="&#xb4;" horiz-adv-x="514" d="M0 1139l274 295h240l-332 -295h-182z" />
<glyph unicode="&#xb5;" horiz-adv-x="1214" d="M129 -377v1366h260v-600q0 -184 184 -184q133 0 224 114v670h260v-692q0 -43 22.5 -66.5t59.5 -23.5q18 0 39 4l18 -221q-53 -14 -121 -15q-213 0 -266 177q-45 -78 -118 -127.5t-159 -49.5q-100 0 -143 58v-410h-260z" />
<glyph unicode="&#xb6;" horiz-adv-x="919" d="M55 1013.5q0 145.5 103.5 249t249.5 103.5h417v-1571h-129v1444h-159v-1444h-129v867q-145 0 -249 103t-104 248.5z" />
<glyph unicode="&#xb7;" d="M96 500q0 68 49.5 117t117 49t116.5 -49.5t49 -116.5q0 -66 -49 -115t-116.5 -49t-117 49t-49.5 115z" />
<glyph unicode="&#xb8;" horiz-adv-x="452" d="M0 -336l51 105q78 -59 166 -60q45 0 76 17.5t31 50.5q0 53 -60 53q-37 0 -65 -29l-95 54l62 168h129l-53 -127q35 20 73 20q57 0 97.5 -40t40.5 -103q0 -80 -65.5 -127t-162.5 -47q-143 -1 -225 65z" />
<glyph unicode="&#xb9;" horiz-adv-x="585" d="M14 1407l279 274h170v-819h-199v568l-139 -142z" />
<glyph unicode="&#xba;" horiz-adv-x="829" d="M61 989q0 141 97.5 239.5t255.5 98.5q160 0 257 -98.5t97 -239.5t-97.5 -239.5t-256.5 -98.5q-158 0 -255.5 98.5t-97.5 239.5zM256 989q0 -86 42 -136t115.5 -50t116.5 50t43 136q0 84 -42 133t-117 49q-74 0 -116 -48t-42 -134z" />
<glyph unicode="&#xbb;" horiz-adv-x="1079" d="M61 129l328 369l-328 362h240l328 -362l-328 -369h-240zM451 129l327 369l-327 362h239l328 -362l-328 -369h-239z" />
<glyph unicode="&#xbc;" horiz-adv-x="1705" d="M14 1092l279 274h170v-819h-199v567l-139 -141zM283 0l872 1366h158l-875 -1366h-155zM950 176v133l324 510h272v-489h109v-154h-109v-176h-194v176h-402zM1145 330h207v323z" />
<glyph unicode="&#xbd;" horiz-adv-x="1775" d="M14 1092l279 274h170v-819h-199v567l-139 -141zM283 0l872 1366h158l-875 -1366h-155zM1032 696q121 135 330 135q145 0 237.5 -67.5t92.5 -188.5q0 -96 -83 -191t-270 -226h359v-158h-643v143q268 188 355 269.5t87 148.5q0 55 -39 84t-100 29q-68 0 -129.5 -31 t-93.5 -72z" />
<glyph unicode="&#xbe;" horiz-adv-x="1886" d="M66 662l96 129q94 -100 235 -101q72 0 111 26.5t39 69.5q0 100 -180 101q-80 0 -93 -2v155q18 -2 91 -2q168 0 167 92q0 90 -149 91q-125 0 -215 -91l-92 117q121 131 327 131q154 0 240 -60.5t86 -162.5q0 -72 -53 -123t-129 -63q72 -6 134 -58.5t62 -136.5 q0 -109 -93 -175.5t-247 -66.5q-226 1 -337 130zM461 0l872 1366h158l-875 -1366h-155zM1130 176v133l324 510h272v-489h109v-154h-109v-176h-194v176h-402zM1325 330h207v323z" />
<glyph unicode="&#xbf;" horiz-adv-x="815" d="M39 -76q0 100 54 178t117.5 117t118 91t54.5 108q0 53 -39 86l223 63q70 -70 70 -180q0 -82 -47 -146.5t-103.5 -98t-103.5 -79t-47 -90.5q0 -49 41 -81.5t121 -32.5q147 0 252 125l165 -187q-172 -197 -450 -196q-195 0 -310.5 89t-115.5 234zM305 845.5q0 67.5 49 117 t117 49.5t117 -49.5t49 -117t-49 -116.5t-117 -49t-117 49t-49 116.5z" />
<glyph unicode="&#xc0;" horiz-adv-x="1400" d="M-10 0l528 1366h365l526 -1366h-332l-84 231h-585l-86 -231h-332zM317 1776h238l276 -295h-182zM487 487h426l-213 588z" />
<glyph unicode="&#xc1;" horiz-adv-x="1400" d="M-10 0l528 1366h365l526 -1366h-332l-84 231h-585l-86 -231h-332zM487 487h426l-213 588zM571 1481l275 295h239l-331 -295h-183z" />
<glyph unicode="&#xc2;" horiz-adv-x="1400" d="M-10 0l528 1366h365l526 -1366h-332l-84 231h-585l-86 -231h-332zM395 1481l189 295h233l193 -295h-160l-150 182l-145 -182h-160zM487 487h426l-213 588z" />
<glyph unicode="&#xc3;" horiz-adv-x="1400" d="M-10 0l528 1366h365l526 -1366h-332l-84 231h-585l-86 -231h-332zM367 1489q0 131 57 202.5t164 71.5q45 0 83 -21.5t57.5 -47t46 -47t50.5 -21.5q74 0 74 125h137q0 -131 -56 -202.5t-163 -71.5q-59 0 -102 34.5t-75 69.5t-62 35q-74 0 -74 -127h-137zM487 487h426 l-213 588z" />
<glyph unicode="&#xc4;" horiz-adv-x="1400" d="M-10 0l528 1366h365l526 -1366h-332l-84 231h-585l-86 -231h-332zM346 1593.5q0 57.5 41 97.5t98.5 40t97.5 -40t40 -97.5t-40 -98.5t-98 -41q-59 0 -99 41t-40 98.5zM487 487h426l-213 588zM778 1593.5q0 57.5 41 97.5t98.5 40t98.5 -40t41 -97.5t-41 -98.5t-98.5 -41 t-98.5 41t-41 98.5z" />
<glyph unicode="&#xc5;" horiz-adv-x="1400" d="M-10 0l528 1366h365l526 -1366h-332l-84 231h-585l-86 -231h-332zM487 487h426l-213 588zM487 1624q0 88 63.5 152.5t152 64.5t150.5 -64.5t62 -152.5q0 -90 -62 -152.5t-150.5 -62.5t-152 63.5t-63.5 151.5zM606 1624q0 -39 29 -67.5t67.5 -28.5t66.5 28.5t28 67.5 q0 41 -28 68.5t-66.5 27.5t-67.5 -28.5t-29 -67.5z" />
<glyph unicode="&#xc6;" horiz-adv-x="1982" d="M-18 0l831 1366h1083v-256h-673v-289h659v-256h-659v-309h673v-256h-966v231h-481l-136 -231h-331zM588 487h342v588z" />
<glyph unicode="&#xc7;" horiz-adv-x="1406" d="M70 682q0 311 207.5 509t519.5 198q383 0 571 -334l-250 -123q-45 86 -132 142t-189 56q-186 0 -307 -126.5t-121 -321.5t120.5 -322t307.5 -127q102 0 189 55.5t132 143.5l250 -121q-182 -317 -537 -334l-30 -73q35 20 73 20q57 0 97.5 -40t40.5 -103q0 -80 -65.5 -127 t-162.5 -47q-143 0 -225 65l51 105q78 -59 166 -60q45 0 76 17.5t31 50.5q0 53 -60 53q-37 0 -65 -28l-94 53l43 119q-279 29 -458 221t-179 479z" />
<glyph unicode="&#xc8;" horiz-adv-x="1193" d="M135 0v1366h967v-256h-676v-289h661v-256h-661v-309h676v-256h-967zM231 1776h238l276 -295h-182z" />
<glyph unicode="&#xc9;" horiz-adv-x="1193" d="M135 0v1366h967v-256h-676v-289h661v-256h-661v-309h676v-256h-967zM487 1481l275 295h239l-331 -295h-183z" />
<glyph unicode="&#xca;" horiz-adv-x="1193" d="M135 0v1366h967v-256h-676v-289h661v-256h-661v-309h676v-256h-967zM311 1481l189 295h233l193 -295h-160l-150 182l-145 -182h-160z" />
<glyph unicode="&#xcb;" horiz-adv-x="1193" d="M135 0v1366h967v-256h-676v-289h661v-256h-661v-309h676v-256h-967zM264 1593.5q0 57.5 41 97.5t98.5 40t97.5 -40t40 -97.5t-40 -98.5t-98 -41q-59 0 -99 41t-40 98.5zM696 1593.5q0 57.5 41 97.5t98.5 40t98.5 -40t41 -97.5t-41 -98.5t-98.5 -41t-98.5 41t-41 98.5z " />
<glyph unicode="&#xcc;" horiz-adv-x="561" d="M-102 1776h237l277 -295h-183zM135 0v1366h291v-1366h-291z" />
<glyph unicode="&#xcd;" horiz-adv-x="561" d="M135 0v1366h291v-1366h-291zM154 1481l274 295h240l-332 -295h-182z" />
<glyph unicode="&#xce;" horiz-adv-x="561" d="M-27 1481l189 295h233l193 -295h-160l-149 182l-146 -182h-160zM135 0v1366h291v-1366h-291z" />
<glyph unicode="&#xcf;" horiz-adv-x="561" d="M-74 1593.5q0 57.5 41 97.5t98.5 40t97.5 -40t40 -97.5t-40 -98.5t-97.5 -41t-98.5 41t-41 98.5zM135 0v1366h291v-1366h-291zM358 1593.5q0 57.5 41 97.5t98.5 40t98.5 -40t41 -97.5t-41 -98.5t-98.5 -41t-98.5 41t-41 98.5z" />
<glyph unicode="&#xd0;" horiz-adv-x="1519" d="M16 567v215h170v584h539q322 0 523.5 -188.5t201.5 -495.5t-200.5 -494.5t-524.5 -187.5h-539v567h-170zM477 256h248q197 0 312.5 123t115.5 303q0 188 -112.5 308t-315.5 120h-248v-328h305v-215h-305v-311z" />
<glyph unicode="&#xd1;" horiz-adv-x="1492" d="M135 0v1366h299l633 -858v858h291v-1366h-281l-651 891v-891h-291zM410 1489q0 131 57 202.5t164 71.5q45 0 83 -21.5t57.5 -47t46 -47t50.5 -21.5q74 0 74 125h137q0 -131 -56 -202.5t-163 -71.5q-59 0 -102 34.5t-75 69.5t-62 35q-74 0 -74 -127h-137z" />
<glyph unicode="&#xd2;" horiz-adv-x="1566" d="M70 682q0 307 201.5 507t510.5 200q311 0 513 -199t202 -508t-201.5 -508t-513.5 -199q-309 0 -510.5 200t-201.5 507zM369 682q0 -195 113.5 -322t300 -127t301 127t114.5 322t-114.5 321.5t-301 126.5t-300 -126.5t-113.5 -321.5zM401 1776h238l276 -295h-182z" />
<glyph unicode="&#xd3;" horiz-adv-x="1566" d="M70 682q0 307 201.5 507t510.5 200q311 0 513 -199t202 -508t-201.5 -508t-513.5 -199q-309 0 -510.5 200t-201.5 507zM369 682q0 -195 113.5 -322t300 -127t301 127t114.5 322t-114.5 321.5t-301 126.5t-300 -126.5t-113.5 -321.5zM653 1481l275 295h239l-331 -295h-183 z" />
<glyph unicode="&#xd4;" horiz-adv-x="1566" d="M70 682q0 307 201.5 507t510.5 200q311 0 513 -199t202 -508t-201.5 -508t-513.5 -199q-309 0 -510.5 200t-201.5 507zM369 682q0 -195 113.5 -322t300 -127t301 127t114.5 322t-114.5 321.5t-301 126.5t-300 -126.5t-113.5 -321.5zM481 1481l189 295h233l193 -295h-160 l-150 182l-145 -182h-160z" />
<glyph unicode="&#xd5;" horiz-adv-x="1566" d="M70 682q0 307 201.5 507t510.5 200q311 0 513 -199t202 -508t-201.5 -508t-513.5 -199q-309 0 -510.5 200t-201.5 507zM369 682q0 -195 113.5 -322t300 -127t301 127t114.5 322t-114.5 321.5t-301 126.5t-300 -126.5t-113.5 -321.5zM449 1489q0 131 57 202.5t164 71.5 q45 0 83 -21.5t57 -47t46 -47t51 -21.5q74 0 74 125h137q0 -131 -56 -202.5t-163 -71.5q-59 0 -102 34.5t-75 69.5t-63 35q-74 0 -73 -127h-137z" />
<glyph unicode="&#xd6;" horiz-adv-x="1566" d="M70 682q0 307 201.5 507t510.5 200q311 0 513 -199t202 -508t-201.5 -508t-513.5 -199q-309 0 -510.5 200t-201.5 507zM369 682q0 -195 113.5 -322t300 -127t301 127t114.5 322t-114.5 321.5t-301 126.5t-300 -126.5t-113.5 -321.5zM430 1593.5q0 57.5 41 97.5t98.5 40 t97.5 -40t40 -97.5t-40 -98.5t-97.5 -41t-98.5 41t-41 98.5zM862 1593.5q0 57.5 41 97.5t98.5 40t98.5 -40t41 -97.5t-41 -98.5t-98.5 -41t-98.5 41t-41 98.5z" />
<glyph unicode="&#xd7;" horiz-adv-x="1032" d="M113 393l288 291l-288 289l116 114l287 -290l289 290l115 -114l-289 -289l289 -291l-115 -112l-289 288l-287 -288z" />
<glyph unicode="&#xd8;" horiz-adv-x="1566" d="M70 682q0 307 201.5 507t510.5 200q193 0 355 -84l47 61h209l-119 -156q223 -203 223 -528q0 -309 -201.5 -508t-513.5 -199q-211 0 -376 97l-56 -72h-209l131 172q-202 199 -202 510zM369 682q0 -162 80 -281l522 686q-90 43 -189 43q-186 0 -299.5 -126.5 t-113.5 -321.5zM569 289q94 -55 213 -56q186 0 301 127t115 322q0 180 -98 301z" />
<glyph unicode="&#xd9;" horiz-adv-x="1501" d="M135 545v821h295v-811q0 -147 84 -234.5t237.5 -87.5t236.5 87.5t83 234.5v811h297v-819q0 -264 -156.5 -418t-459.5 -154t-460 155t-157 415zM369 1776h237l277 -295h-183z" />
<glyph unicode="&#xda;" horiz-adv-x="1501" d="M135 545v821h295v-811q0 -147 84 -234.5t237.5 -87.5t236.5 87.5t83 234.5v811h297v-819q0 -264 -156.5 -418t-459.5 -154t-460 155t-157 415zM623 1481l274 295h240l-332 -295h-182z" />
<glyph unicode="&#xdb;" horiz-adv-x="1501" d="M135 545v821h295v-811q0 -147 84 -234.5t237.5 -87.5t236.5 87.5t83 234.5v811h297v-819q0 -264 -156.5 -418t-459.5 -154t-460 155t-157 415zM453 1481l188 295h233l193 -295h-160l-149 182l-146 -182h-159z" />
<glyph unicode="&#xdc;" horiz-adv-x="1501" d="M135 545v821h295v-811q0 -147 84 -234.5t237.5 -87.5t236.5 87.5t83 234.5v811h297v-819q0 -264 -156.5 -418t-459.5 -154t-460 155t-157 415zM401 1593.5q0 57.5 41 97.5t98.5 40t97.5 -40t40 -97.5t-40 -98.5t-97.5 -41t-98.5 41t-41 98.5zM834 1593.5 q0 57.5 40.5 97.5t98 40t98.5 -40t41 -97.5t-41 -98.5t-98.5 -41t-98 41t-40.5 98.5z" />
<glyph unicode="&#xdd;" horiz-adv-x="1320" d="M-10 1366h332l340 -549l335 549h332l-522 -807v-559h-291v559zM530 1481l275 295h239l-331 -295h-183z" />
<glyph unicode="&#xde;" horiz-adv-x="1277" d="M135 0v1366h291v-221h348q215 0 337 -127t122 -316q0 -186 -123 -311t-336 -125h-348v-266h-291zM426 522h305q90 0 147.5 49.5t57.5 133t-58.5 134t-146.5 50.5h-305v-367z" />
<glyph unicode="&#xdf;" horiz-adv-x="1316" d="M129 0v973q0 176 127 294.5t342 118.5q170 0 296 -81.5t126 -214.5q0 -78 -42 -138.5t-93 -90.5t-93 -69.5t-42 -78.5t55 -59.5t134 -36t157 -43t133 -98t55 -181.5q0 -139 -112.5 -229.5t-299.5 -90.5q-135 0 -227 40t-176 116l111 180q43 -55 123.5 -94t168.5 -39 q78 0 120 31t42 76q0 43 -55 68.5t-134 43t-157 45t-133 93t-55 170.5q0 59 25.5 108t63.5 81t74.5 57.5t62.5 51t26 50.5q0 47 -47.5 74.5t-110.5 27.5q-88 0 -146.5 -49t-58.5 -133v-973h-260z" />
<glyph unicode="&#xe0;" horiz-adv-x="1112" d="M66 303q0 160 103 240t241 80q211 0 313 -121v133q0 76 -59.5 121t-157.5 45q-162 0 -289 -117l-98 174q176 156 432 156q190 0 311 -88t121 -287v-639h-260v102q-106 -127 -313 -127q-133 0 -238.5 87t-105.5 241zM166 1434h237l277 -295h-182zM328 297q0 -68 53 -106.5 t133 -38.5q145 0 209 86v122q-63 86 -209 86q-80 0 -133 -39.5t-53 -109.5z" />
<glyph unicode="&#xe1;" horiz-adv-x="1112" d="M66 303q0 160 103 240t241 80q211 0 313 -121v133q0 76 -59.5 121t-157.5 45q-162 0 -289 -117l-98 174q176 156 432 156q190 0 311 -88t121 -287v-639h-260v102q-106 -127 -313 -127q-133 0 -238.5 87t-105.5 241zM328 297q0 -68 53 -106.5t133 -38.5q145 0 209 86v122 q-63 86 -209 86q-80 0 -133 -39.5t-53 -109.5zM420 1139l274 295h240l-332 -295h-182z" />
<glyph unicode="&#xe2;" horiz-adv-x="1112" d="M66 303q0 160 103 240t241 80q211 0 313 -121v133q0 76 -59.5 121t-157.5 45q-162 0 -289 -117l-98 174q176 156 432 156q190 0 311 -88t121 -287v-639h-260v102q-106 -127 -313 -127q-133 0 -238.5 87t-105.5 241zM248 1139l188 295h234l192 -295h-160l-149 182 l-145 -182h-160zM328 297q0 -68 53 -106.5t133 -38.5q145 0 209 86v122q-63 86 -209 86q-80 0 -133 -39.5t-53 -109.5z" />
<glyph unicode="&#xe3;" horiz-adv-x="1112" d="M66 303q0 160 103 240t241 80q211 0 313 -121v133q0 76 -59.5 121t-157.5 45q-162 0 -289 -117l-98 174q176 156 432 156q190 0 311 -88t121 -287v-639h-260v102q-106 -127 -313 -127q-133 0 -238.5 87t-105.5 241zM217 1147q0 131 57.5 202.5t163.5 71.5 q57 0 100.5 -34.5t75 -68.5t62.5 -34q74 0 74 125h137q0 -131 -56.5 -202.5t-162.5 -71.5q-59 0 -102.5 34.5t-75 69.5t-62.5 35q-74 0 -74 -127h-137zM328 297q0 -68 53 -106.5t133 -38.5q145 0 209 86v122q-63 86 -209 86q-80 0 -133 -39.5t-53 -109.5z" />
<glyph unicode="&#xe4;" horiz-adv-x="1112" d="M66 303q0 160 103 240t241 80q211 0 313 -121v133q0 76 -59.5 121t-157.5 45q-162 0 -289 -117l-98 174q176 156 432 156q190 0 311 -88t121 -287v-639h-260v102q-106 -127 -313 -127q-133 0 -238.5 87t-105.5 241zM197 1251q0 57 41 97.5t98 40.5t97 -40t40 -97.5 t-40 -98.5t-97 -41t-98 40t-41 99zM328 297q0 -68 53 -106.5t133 -38.5q145 0 209 86v122q-63 86 -209 86q-80 0 -133 -39.5t-53 -109.5zM629 1251.5q0 57.5 41 97.5t98 40t98 -40t41 -97.5t-41 -98.5t-98 -41t-98 41t-41 98.5z" />
<glyph unicode="&#xe5;" horiz-adv-x="1112" d="M66 303q0 160 103 240t241 80q211 0 313 -121v133q0 76 -59.5 121t-157.5 45q-162 0 -289 -117l-98 174q176 156 432 156q190 0 311 -88t121 -287v-639h-260v102q-106 -127 -313 -127q-133 0 -238.5 87t-105.5 241zM328 297q0 -68 53 -106.5t133 -38.5q145 0 209 86v122 q-63 86 -209 86q-80 0 -133 -39.5t-53 -109.5zM340 1302.5q0 88.5 63.5 153t151.5 64.5t150.5 -64.5t62.5 -152.5q0 -90 -62.5 -153t-150.5 -63t-151.5 63.5t-63.5 152zM459 1302.5q0 -38.5 28.5 -67.5t67.5 -29t66.5 29t27.5 68q0 41 -27.5 68.5t-66.5 27.5t-67.5 -29 t-28.5 -67.5z" />
<glyph unicode="&#xe6;" horiz-adv-x="1781" d="M66 299q0 156 102 240t256 84q223 0 338 -119v133q0 74 -64.5 119t-171.5 45q-170 0 -309 -117l-98 174q176 156 438 156q260 0 346 -170q129 170 359 170q205 0 332.5 -150.5t127.5 -394.5v-57h-698q14 -96 84 -160t182 -64q152 0 244 97l117 -172q-72 -66 -176.5 -102 t-202.5 -36q-256 0 -381 181q-63 -80 -173 -130.5t-239 -50.5q-176 0 -294.5 83t-118.5 241zM328 313.5q0 -63.5 56 -98.5t140 -35q94 0 166 52.5t72 113.5v12q-78 88 -232 88q-88 0 -145 -34.5t-57 -98zM1020 588h450q-4 84 -60 151.5t-165 67.5q-102 0 -159.5 -66.5 t-65.5 -152.5z" />
<glyph unicode="&#xe7;" horiz-adv-x="1021" d="M66 496q0 227 147 372.5t377 145.5q262 0 391 -178l-170 -160q-72 106 -209 106q-119 0 -193.5 -78.5t-74.5 -207.5t74.5 -209t193.5 -80q133 0 209 106l170 -157q-113 -160 -336 -179l-33 -77q35 20 74 20q57 0 97 -40t40 -103q0 -80 -65.5 -127t-161.5 -47 q-143 0 -225 65l51 105q78 -59 166 -60q45 0 75.5 17.5t30.5 50.5q0 53 -59 53q-37 0 -66 -29l-94 54l43 121q-203 23 -327.5 164t-124.5 352z" />
<glyph unicode="&#xe8;" horiz-adv-x="1132" d="M66 496q0 219 144 368.5t368 149.5q221 0 358 -150.5t137 -394.5v-57h-735q12 -98 88 -164t197 -66q66 0 142.5 27t121.5 72l114 -168q-150 -137 -407 -138q-229 0 -378.5 144t-149.5 377zM195 1434h237l277 -295h-183zM334 588h487q-6 84 -66.5 151.5t-176.5 67.5 q-111 0 -172.5 -66.5t-71.5 -152.5z" />
<glyph unicode="&#xe9;" horiz-adv-x="1132" d="M66 496q0 219 144 368.5t368 149.5q221 0 358 -150.5t137 -394.5v-57h-735q12 -98 88 -164t197 -66q66 0 142.5 27t121.5 72l114 -168q-150 -137 -407 -138q-229 0 -378.5 144t-149.5 377zM334 588h487q-6 84 -66.5 151.5t-176.5 67.5q-111 0 -172.5 -66.5t-71.5 -152.5z M449 1139l274 295h240l-332 -295h-182z" />
<glyph unicode="&#xea;" horiz-adv-x="1132" d="M66 496q0 219 144 368.5t368 149.5q221 0 358 -150.5t137 -394.5v-57h-735q12 -98 88 -164t197 -66q66 0 142.5 27t121.5 72l114 -168q-150 -137 -407 -138q-229 0 -378.5 144t-149.5 377zM272 1139l189 295h233l193 -295h-160l-149 182l-146 -182h-160zM334 588h487 q-6 84 -66.5 151.5t-176.5 67.5q-111 0 -172.5 -66.5t-71.5 -152.5z" />
<glyph unicode="&#xeb;" horiz-adv-x="1132" d="M66 496q0 219 144 368.5t368 149.5q221 0 358 -150.5t137 -394.5v-57h-735q12 -98 88 -164t197 -66q66 0 142.5 27t121.5 72l114 -168q-150 -137 -407 -138q-229 0 -378.5 144t-149.5 377zM225 1251q0 57 41 97.5t98.5 40.5t97.5 -40t40 -97.5t-40 -98.5t-97.5 -41 t-98.5 40t-41 99zM334 588h487q-6 84 -66.5 151.5t-176.5 67.5q-111 0 -172.5 -66.5t-71.5 -152.5zM657 1251.5q0 57.5 41 97.5t98.5 40t98.5 -40t41 -97.5t-41 -98.5t-98.5 -41t-98.5 41t-41 98.5z" />
<glyph unicode="&#xec;" horiz-adv-x="518" d="M-125 1434h238l276 -295h-182zM129 0v989h260v-989h-260z" />
<glyph unicode="&#xed;" horiz-adv-x="518" d="M129 0v989h260v-989h-260zM129 1139l274 295h240l-332 -295h-182z" />
<glyph unicode="&#xee;" horiz-adv-x="518" d="M-49 1139l188 295h234l192 -295h-159l-150 182l-145 -182h-160zM129 0v989h260v-989h-260z" />
<glyph unicode="&#xef;" horiz-adv-x="518" d="M-96 1251q0 57 41 97.5t98 40.5t97 -40t40 -97.5t-40 -98.5t-97 -41q-59 0 -99 40t-40 99zM129 0v989h260v-989h-260zM336 1251.5q0 57.5 41 97.5t98 40t98 -40t41 -97.5t-41 -98.5t-98 -41t-98 41t-41 98.5z" />
<glyph unicode="&#xf0;" horiz-adv-x="1175" d="M66 459q0 211 125.5 347t312.5 136q209 0 327 -190q-74 166 -321 340l-299 -131l-51 122l219 97q-16 10 -125 75l141 211q162 -98 252 -170l211 93l51 -119l-149 -66q352 -313 352 -688q0 -244 -141.5 -392.5t-382.5 -148.5q-233 0 -377.5 135.5t-144.5 348.5zM336 458.5 q0 -106.5 67.5 -179t184.5 -72.5t185.5 72.5t68.5 179t-68.5 179.5t-185.5 73t-184.5 -73t-67.5 -179.5z" />
<glyph unicode="&#xf1;" horiz-adv-x="1185" d="M129 0v989h260v-129q129 154 346 154q160 0 241 -84t81 -232v-698h-260v598q0 184 -183 184q-141 0 -225 -116v-666h-260zM260 1147q0 131 57.5 202.5t163.5 71.5q57 0 100.5 -34.5t75 -68.5t62.5 -34q74 0 74 125h137q0 -131 -56.5 -202.5t-162.5 -71.5 q-59 0 -102.5 34.5t-75 69.5t-62.5 35q-74 0 -74 -127h-137z" />
<glyph unicode="&#xf2;" horiz-adv-x="1175" d="M66 495.5q0 219.5 142 369t379.5 149.5t381 -149.5t143.5 -369t-143.5 -370t-381 -150.5t-379.5 150.5t-142 370zM205 1434h237l277 -295h-182zM336 496q0 -123 67.5 -206t184.5 -83t185.5 83t68.5 206q0 121 -68.5 203.5t-185.5 82.5t-184.5 -82.5t-67.5 -203.5z" />
<glyph unicode="&#xf3;" horiz-adv-x="1175" d="M66 495.5q0 219.5 142 369t379.5 149.5t381 -149.5t143.5 -369t-143.5 -370t-381 -150.5t-379.5 150.5t-142 370zM336 496q0 -123 67.5 -206t184.5 -83t185.5 83t68.5 206q0 121 -68.5 203.5t-185.5 82.5t-184.5 -82.5t-67.5 -203.5zM459 1139l274 295h240l-332 -295 h-182z" />
<glyph unicode="&#xf4;" horiz-adv-x="1175" d="M66 495.5q0 219.5 142 369t379.5 149.5t381 -149.5t143.5 -369t-143.5 -370t-381 -150.5t-379.5 150.5t-142 370zM281 1139l188 295h233l193 -295h-160l-149 182l-146 -182h-159zM336 496q0 -123 67.5 -206t184.5 -83t185.5 83t68.5 206q0 121 -68.5 203.5t-185.5 82.5 t-184.5 -82.5t-67.5 -203.5z" />
<glyph unicode="&#xf5;" horiz-adv-x="1175" d="M66 495.5q0 219.5 142 369t379.5 149.5t381 -149.5t143.5 -369t-143.5 -370t-381 -150.5t-379.5 150.5t-142 370zM254 1147q0 131 57.5 202.5t163.5 71.5q57 0 100 -34.5t75 -68.5t63 -34q74 0 73 125h138q0 -131 -56.5 -202.5t-162.5 -71.5q-59 0 -102.5 34.5t-75 69.5 t-62.5 35q-74 0 -74 -127h-137zM336 496q0 -123 67.5 -206t184.5 -83t185.5 83t68.5 206q0 121 -68.5 203.5t-185.5 82.5t-184.5 -82.5t-67.5 -203.5z" />
<glyph unicode="&#xf6;" horiz-adv-x="1175" d="M66 495.5q0 219.5 142 369t379.5 149.5t381 -149.5t143.5 -369t-143.5 -370t-381 -150.5t-379.5 150.5t-142 370zM233 1251q0 57 41 97.5t98.5 40.5t97.5 -40t40 -97.5t-40 -98.5t-97.5 -41t-98.5 40t-41 99zM336 496q0 -123 67.5 -206t184.5 -83t185.5 83t68.5 206 q0 121 -68.5 203.5t-185.5 82.5t-184.5 -82.5t-67.5 -203.5zM666 1251.5q0 57.5 41 97.5t98 40t98 -40t41 -97.5t-41 -98.5t-98 -41t-98 41t-41 98.5z" />
<glyph unicode="&#xf7;" horiz-adv-x="1046" d="M59 610v162h928v-162h-928zM397 321.5q0 51.5 37 88t88 36.5t88 -36.5t37 -88t-37 -88t-88 -36.5t-88 36.5t-37 88zM397 1057q0 51 37 87t88 36t88 -36t37 -87q0 -53 -37 -90t-88 -37t-88 37t-37 90z" />
<glyph unicode="&#xf8;" horiz-adv-x="1175" d="M66 496q0 219 142 368.5t380 149.5q166 0 289 -78l45 53h163l-112 -131q139 -145 139 -362q0 -219 -143.5 -370t-380.5 -151q-174 0 -297 82l-49 -57h-160l117 137q-133 146 -133 359zM336 496q0 -86 35 -156l346 408q-57 35 -129 34q-117 0 -184.5 -82.5t-67.5 -203.5z M451 246q53 -39 137 -39q117 0 185.5 83t68.5 206q0 90 -41 161z" />
<glyph unicode="&#xf9;" horiz-adv-x="1185" d="M129 287v702h260v-600q0 -182 182 -182q137 0 226 112v670h260v-989h-260v125q-133 -150 -348 -150q-160 0 -240 82.5t-80 229.5zM209 1434h237l277 -295h-182z" />
<glyph unicode="&#xfa;" horiz-adv-x="1185" d="M129 287v702h260v-600q0 -182 182 -182q137 0 226 112v670h260v-989h-260v125q-133 -150 -348 -150q-160 0 -240 82.5t-80 229.5zM461 1139l274 295h240l-332 -295h-182z" />
<glyph unicode="&#xfb;" horiz-adv-x="1185" d="M129 287v702h260v-600q0 -182 182 -182q137 0 226 112v670h260v-989h-260v125q-133 -150 -348 -150q-160 0 -240 82.5t-80 229.5zM287 1139l188 295h234l192 -295h-160l-149 182l-146 -182h-159z" />
<glyph unicode="&#xfc;" horiz-adv-x="1185" d="M129 287v702h260v-600q0 -182 182 -182q137 0 226 112v670h260v-989h-260v125q-133 -150 -348 -150q-160 0 -240 82.5t-80 229.5zM238 1251q0 57 40.5 97.5t98 40.5t97.5 -40t40 -97.5t-40 -98.5t-97.5 -41t-98 40t-40.5 99zM670 1251.5q0 57.5 41 97.5t98 40t98 -40 t41 -97.5t-41 -98.5t-98 -41t-98 41t-41 98.5z" />
<glyph unicode="&#xfd;" horiz-adv-x="1050" d="M-12 989h278l258 -688l258 688h281l-465 -1151q-51 -131 -143.5 -183t-231.5 -56q-72 0 -129 14l39 233q37 -16 82 -16q104 0 137 72l37 84zM393 1139l275 295h239l-332 -295h-182z" />
<glyph unicode="&#xfe;" horiz-adv-x="1193" d="M129 -377v1743h260v-502q117 150 305 150q195 0 317 -138.5t122 -380t-122 -381t-317 -139.5q-186 0 -305 152v-504h-260zM389 319q33 -47 97.5 -79.5t125.5 -32.5q113 0 181.5 80t68.5 209q0 127 -68.5 206.5t-181.5 79.5q-63 0 -126.5 -32.5t-96.5 -79.5v-351z" />
<glyph unicode="&#xff;" horiz-adv-x="1050" d="M-12 989h278l258 -688l258 688h281l-465 -1151q-51 -131 -143.5 -183t-231.5 -56q-72 0 -129 14l39 233q37 -16 82 -16q104 0 137 72l37 84zM170 1251q0 57 41 97.5t98.5 40.5t97 -40t39.5 -97.5t-39.5 -98.5t-97.5 -41q-59 0 -99 40t-40 99zM602 1251.5q0 57.5 41 97.5 t98.5 40t98.5 -40t41 -97.5t-41 -98.5t-98.5 -41t-98.5 41t-41 98.5z" />
<glyph unicode="&#x152;" horiz-adv-x="2220" d="M70 682q0 309 192.5 506.5t491.5 197.5q119 0 232.5 -47t178.5 -135v162h967v-256h-674v-289h660v-256h-660v-309h674v-256h-967v160q-66 -88 -179.5 -136.5t-231.5 -48.5q-299 0 -491.5 199t-192.5 508zM369 682q0 -195 115.5 -322t310.5 -127q125 0 223 62.5t147 175.5 v422q-49 115 -146 175t-224 60q-195 0 -310.5 -124.5t-115.5 -321.5z" />
<glyph unicode="&#x153;" horiz-adv-x="1906" d="M66 495.5q0 219.5 142 369t380 149.5q229 0 387 -221q141 221 379 221q221 0 357 -150.5t136 -394.5v-57h-733q14 -98 89 -164t196 -66q156 0 262 97l117 -166q-154 -137 -408 -138q-246 0 -397 220q-152 -219 -385 -220q-238 0 -380 150.5t-142 370zM336 496 q0 -129 69.5 -210t182.5 -81q115 0 184.5 81t69.5 210q0 127 -70 206.5t-184 79.5q-113 0 -182.5 -79.5t-69.5 -206.5zM1110 588h487q-6 84 -67.5 151.5t-177.5 67.5q-111 0 -172.5 -66.5t-69.5 -152.5z" />
<glyph unicode="&#x178;" horiz-adv-x="1320" d="M-10 1366h332l340 -549l335 549h332l-522 -807v-559h-291v559zM307 1593.5q0 57.5 41 97.5t98.5 40t97.5 -40t40 -97.5t-40 -98.5t-97.5 -41t-98.5 41t-41 98.5zM739 1593.5q0 57.5 41 97.5t98.5 40t98.5 -40t41 -97.5t-41 -98.5t-98.5 -41t-98.5 41t-41 98.5z" />
<glyph unicode="&#x2c6;" horiz-adv-x="614" d="M0 1139l188 295h234l192 -295h-159l-150 182l-145 -182h-160z" />
<glyph unicode="&#x2dc;" horiz-adv-x="669" d="M0 1147q0 131 57.5 202.5t163.5 71.5q57 0 100.5 -34.5t75 -68.5t62.5 -34q74 0 73 125h138q0 -131 -56.5 -202.5t-162.5 -71.5q-59 0 -102.5 34.5t-75 69.5t-62.5 35q-74 0 -74 -127h-137z" />
<glyph unicode="&#x2000;" horiz-adv-x="919" />
<glyph unicode="&#x2001;" horiz-adv-x="1841" />
<glyph unicode="&#x2002;" horiz-adv-x="919" />
<glyph unicode="&#x2003;" horiz-adv-x="1841" />
<glyph unicode="&#x2004;" horiz-adv-x="612" />
<glyph unicode="&#x2005;" horiz-adv-x="458" />
<glyph unicode="&#x2006;" horiz-adv-x="305" />
<glyph unicode="&#x2007;" horiz-adv-x="305" />
<glyph unicode="&#x2008;" horiz-adv-x="229" />
<glyph unicode="&#x2009;" horiz-adv-x="366" />
<glyph unicode="&#x200a;" horiz-adv-x="100" />
<glyph unicode="&#x2010;" horiz-adv-x="614" d="M61 385v221h492v-221h-492z" />
<glyph unicode="&#x2011;" horiz-adv-x="614" d="M61 385v221h492v-221h-492z" />
<glyph unicode="&#x2012;" horiz-adv-x="614" d="M61 385v221h492v-221h-492z" />
<glyph unicode="&#x2013;" horiz-adv-x="1214" d="M61 385v221h1092v-221h-1092z" />
<glyph unicode="&#x2014;" horiz-adv-x="1705" d="M61 385v221h1584v-221h-1584z" />
<glyph unicode="&#x2018;" horiz-adv-x="522" d="M78 1008q0 113 57.5 212t155.5 166l112 -90q-51 -27 -98 -84t-61 -110q10 6 41 6q59 0 99 -41t40 -106.5t-48 -113.5t-114 -48q-76 0 -130 56.5t-54 152.5z" />
<glyph unicode="&#x2019;" horiz-adv-x="522" d="M96 1223q0 68 47 115.5t113 47.5q76 0 130 -56t54 -152q0 -113 -57 -212.5t-154 -168.5l-112 92q51 27 98 84t59 110q-12 -8 -38 -8q-59 0 -99.5 42.5t-40.5 105.5z" />
<glyph unicode="&#x201a;" d="M96 145q0 68 47 116t113 48q76 0 130 -56t54 -153q0 -113 -57 -212t-154 -169l-112 93q51 27 98 83t59 109q-18 -6 -38 -6q-59 0 -99.5 40.5t-40.5 106.5z" />
<glyph unicode="&#x201c;" horiz-adv-x="940" d="M82 1008q0 113 56.5 212t154.5 166l113 -90q-51 -27 -98.5 -84t-61.5 -110q8 6 41 6q59 0 99 -41t40 -106.5t-48 -113.5t-114 -48q-76 0 -129 56.5t-53 152.5zM500 1008q0 113 56 212t153 166l114 -90q-51 -27 -99 -84t-60 -110q8 6 41 6q57 0 97 -41t40 -106.5 t-47 -113.5t-115 -48q-76 0 -128 56.5t-52 152.5z" />
<glyph unicode="&#x201d;" horiz-adv-x="940" d="M96 1223q0 68 47 115.5t113 47.5q76 0 130 -56t54 -152q0 -113 -57 -212.5t-154 -168.5l-112 92q51 27 98 84t59 110q-12 -8 -38 -8q-59 0 -99.5 42.5t-40.5 105.5zM512 1223q0 68 48 115.5t114 47.5q76 0 129 -56t53 -152q0 -113 -56.5 -212.5t-154.5 -168.5l-113 92 q51 27 98.5 84t61.5 110q-16 -8 -41 -8q-59 0 -99 42.5t-40 105.5z" />
<glyph unicode="&#x201e;" horiz-adv-x="940" d="M96 145q0 68 47 116t113 48q76 0 130 -56t54 -153q0 -113 -57 -212t-154 -169l-112 93q51 27 98 83t59 109q-18 -6 -38 -6q-59 0 -99.5 40.5t-40.5 106.5zM512 145q0 68 48 116t114 48q76 0 129 -56t53 -153q0 -113 -56.5 -212t-154.5 -169l-113 93q51 27 98.5 83 t61.5 109q-25 -6 -41 -6q-59 0 -99 40.5t-40 106.5z" />
<glyph unicode="&#x2022;" horiz-adv-x="733" d="M125 496q0 102 70.5 172.5t173 70.5t173 -70.5t70.5 -172.5q0 -100 -71.5 -171t-172 -71t-172 71t-71.5 171z" />
<glyph unicode="&#x2026;" horiz-adv-x="1572" d="M96 143q0 68 48.5 117t116 49t116.5 -49t49 -117q0 -66 -49 -114.5t-116.5 -48.5t-116 48.5t-48.5 114.5zM621 143q0 68 48 117t115.5 49t116.5 -49t49 -117q0 -66 -49 -114.5t-116.5 -48.5t-115.5 48.5t-48 114.5zM1145 143q0 68 48 117t115.5 49t117 -49t49.5 -117 q0 -66 -49.5 -114.5t-117 -48.5t-115.5 48.5t-48 114.5z" />
<glyph unicode="&#x202f;" horiz-adv-x="366" />
<glyph unicode="&#x2039;" horiz-adv-x="690" d="M61 498l328 362h240l-328 -362l328 -369h-240z" />
<glyph unicode="&#x203a;" horiz-adv-x="690" d="M61 129l328 369l-328 362h240l328 -362l-328 -369h-240z" />
<glyph unicode="&#x205f;" horiz-adv-x="458" />
<glyph unicode="&#x20ac;" horiz-adv-x="1452" d="M43 463v155h76q-2 20 -2 64q0 47 2 70h-76v153h107q68 221 256 352.5t438 131.5q383 0 571 -334l-250 -123q-45 86 -132 142t-189 56q-125 0 -223.5 -60t-153.5 -165h502v-153h-549q-4 -23 -4 -70q0 -23 4 -64h549v-155h-504q53 -106 153.5 -168t225.5 -62 q102 0 189 55.5t132 143.5l250 -121q-195 -336 -571 -336q-250 0 -439.5 132.5t-257.5 355.5h-104z" />
<glyph unicode="&#x2122;" horiz-adv-x="929" d="M35 1313v53h311v-53h-127v-398h-57v398h-127zM420 915v451h88l131 -328l131 328h88v-451h-57v373l-154 -373h-16l-154 373v-373h-57z" />
<glyph unicode="&#xe000;" horiz-adv-x="990" d="M0 990h990v-990h-990v990z" />
<glyph unicode="&#xfb01;" horiz-adv-x="1187" d="M23 762v227h163v53q0 158 93.5 251t240.5 93q111 0 189 -40l-54 -189q-35 25 -84 25q-57 0 -89.5 -37t-32.5 -103v-53h200v-227h-200v-762h-263v762h-163zM772 1251.5q0 63.5 46 108.5t110 45q66 0 110.5 -45t44.5 -108.5t-46 -109.5t-109.5 -46t-109.5 46t-46 109.5z M799 0v989h260v-989h-260z" />
<glyph unicode="&#xfb02;" horiz-adv-x="1187" d="M23 762v227h163v53q0 158 93.5 251t240.5 93q111 0 189 -40l-54 -189q-35 25 -84 25q-57 0 -89.5 -37t-32.5 -103v-53h200v-227h-200v-762h-263v762h-163zM799 0v1366h260v-1366h-260z" />
<glyph unicode="&#xfb03;" horiz-adv-x="1857" d="M23 762v227h163v53q0 158 92.5 251t241.5 93q172 0 258 -92l-98 -153q-41 41 -109 41q-55 0 -88.5 -36t-33.5 -104v-53h200v-227h-200v-762h-263v762h-163zM692 762v227h164v53q0 158 92 251t242 93q111 0 188 -40l-53 -189q-35 25 -84 25q-57 0 -90 -37t-33 -103v-53 h201v-227h-201v-762h-262v762h-164zM1444 1251.5q0 63.5 46 108.5t109 45q66 0 111 -45t45 -108.5t-46 -109.5t-109.5 -46t-109.5 46t-46 109.5zM1470 0v989h261v-989h-261z" />
<glyph unicode="&#xfb04;" horiz-adv-x="1857" d="M23 762v227h163v53q0 158 92.5 251t241.5 93q172 0 258 -92l-98 -153q-41 41 -109 41q-55 0 -88.5 -36t-33.5 -104v-53h200v-227h-200v-762h-263v762h-163zM692 762v227h164v53q0 158 92 251t242 93q111 0 188 -40l-53 -189q-35 25 -84 25q-57 0 -90 -37t-33 -103v-53 h201v-227h-201v-762h-262v762h-164zM1470 0v1366h261v-1366h-261z" />
</font>
</defs>
</svg>
